War for the Planet of the Apes (2017) HD-TS AC-3

seeders:
leechers:
updated:
Added by makintos13 in TV
Torrent verified.

War for the Planet of the Apes (2017) HD-TS AC-3 (Size: )
War for the Planet of the Apes (2017) HD-TS AC-3 _KOSHARA.avi1.37 GiB

Description

screens:
 
https://imgmak.com/zN3
 
https://imgmak.com/zN3
 
https://imgmak.com/zNy
 
https://imgmak.com/zN9


War for the Planet of the Apes (2017) HD-TS AC-3 

Format : AVI 
Format/Info : Audio Video Interleave 
File size : 1.37 GiB 
Duration : 2h 5mn 
Overall bit rate : 1 553 Kbps 
Writing application : VirtualDubMod 1.5.10.2 (build 2540/release) 
Writing library : VirtualDubMod build 2540/release 

Video 
ID : 0 
Format : MPEG-4 Visual 
Format profile : Advanced [email protected] 
Language:russian
Format settings, BVOP : 2 
Format settings, QPel : No 
Format settings, GMC : No warppoints 
Format settings, Matrix : Default (MPEG) 
Codec ID : XVID 
Codec ID/Hint : XviD 
Duration : 2h 5mn 
Bit rate : 1 352 Kbps 
Width : 720 pixels 
Height : 288 pixels 
Display aspect ratio : 2.500 
Frame rate : 23.976 fps 
Color space : YUV 
Chroma subsampling : 4:2:0 
Bit depth : 8 bits 
Scan type : Progressive 
Compression mode : Lossy 
Bits/(Pixel*Frame) : 0.272 
Stream size : 1.19 GiB (87%) 
Writing library : XviD 1.2.1 (UTC 2008-12-04) 

Audio 
ID : 1 
Format : AC-3 
Format/Info : Audio Coding 3 
Mode extension : CM (complete main) 
Codec ID : 2000 
Duration : 2h 5mn 
Bit rate mode : Constant 
Bit rate : 192 Kbps 
Channel(s) : 2 channels 
Channel positions : Front: L R 
Sampling rate : 48.0 KHz 
Bit depth : 16 bits 
Compression mode : Lossy 
Stream size : 173 MiB (12%) 
Alignment : Split accross interleaves 
Interleave, duration : 42 ms (1.00 video frame) 
Interleave, preload duration : 500 ms

Sharing Widget


Download torrent
seeders:
leechers:
War for the Planet of the Apes (2017) HD-TS AC-3



To share this torrent use the code below and insert it into comments, status messages, forum posts or your signature.

Torrent: War for the Planet of the Apes (2017) HD-TS AC-3

Trackers

tracker name
udp://tracker.coppersurfer.tk:6969/announce
udp://9.rarbg.me:2710/announce
udp://p4p.arenabg.ch:1337/announce
udp://tracker.leechers-paradise.org:6969/announce
udp://eddie4.nl:6969/announce
udp://thetracker.org:80/announce
udp://tracker.coppersurfer.tk:6969
udp://explodie.org:6969/announce
udp://tracker.aletorrenty.pl:2710/announce
udp://9.rarbg.to:2710/announce
udp://torrent.gresille.org:80/announce
udp://tracker.opentrackr.org:1337/announce
udp://tracker.piratepublic.com:1337/announce
udp://tracker.sktorrent.net:6969/announce
udp://zer0day.ch:1337/announce
??Torrent compatible trackers list

Locations

name
KickassTorrents
Torrent hash: 28140C1ED280F58A2717A2B7D0EE648BB3C00F99

All Comments

audio
0/10
video
0/10
please, leave only comments related to that torrent
Sign In

Vostock
Esta en ruso el audio, la concha de tu madre la chupapija judia sionista. Igual gracias x todos tus aportes (Y)
Pakosan
The vallau crap is from spammers.

You've been warned.
Pan_Metron_Ariston

video 5/10
audio 1/10

actually the audio is so bad it doesnt make any difference what language the actors speak.
pobednik
Can somebody PLEASE block all these spam accounts???

What the hell are TPB moderators are (not) paid for?
pobednik
Audio is on Russian!
/or some similar shitty language!/
miketheratguy
Literally the worst cam torrent I've ever seen. In Russian, no ape sign language translation, literally sounds like it was recorded next to a waterfall, final (rather important) scene abruptly cut off before it can happen and then just as abruptly RESUMED just as the scene is ending, and if that ain't enough for you maybe the ads EMBEDDED IN THE VIDEO ITSELF THAT SLOWLY SCROLL ACROSS THE MIDDLE OF THE FUCKING IMAGE will do the trick.


Absolute garbage.
meddiggagoe
Dear kv12345 and JawdeenAJ,

FUCK YOU!
hackmatic
Why are http:// and https:// even allowed in comments? TPB devs living up to their reputation in 2017... Should be about time for some more ISP blocked IPs and broken ajax and web forms..

Right now I have to manually edit their CSS just to get the comment form..
doc_up72
bawa456 is full of shit. you can't and won't get this or any other new movies from that link or any other link that says you can get better versions. you will only get a bunch of old ass b-movies you've never heard of. if you want proof hit me up
Hasan755

Audio is a bit muffled and video is not watchable, especially the darker scenes.

If you really want to watch this movie, I found this site with great quality and subs if you need
--> http://sync.downloadsrv.biz

enjoy the movie
Report a bug Open chat