The Croods (2013) 1080p Dual Audio Español Latino, Ingles

seeders: 3
leechers: 2
updated:
Added by Memo_2307 in TV
Torrent verified.

The Croods (2013) 1080p Dual Audio Español Latino, Ingles (Size: 2.74 GiB (2937657108 Bytes))

Description

SIPNOSIS
Prehistoria. Tras la destrucción de su hogar por un gran terremoto, Grug se ve obligado a emigrar con su familia. Mientras avanzan por un mundo desconocido y aterrador, se encuentran con un nómada de mente abierta que los deja a todos fascinados, sobre todo a la hija de Grug.

Format : Matroska
Format version : Version 4 / Version 2
File size : 2.73 GiB
Duration : 1h 38mn
Overall bit rate : 3 970 Kbps
Encoded date : UTC 2013-09-14 17:04:08
Writing application : mkvmerge v6.3.0 ('You can't stop me!') built on Jun 28 2013 20:09:41
Writing library : libebml v1.3.0 + libmatroska v1.4.0


Video
ID : 1
Format : AVC
Format/Info : Advanced Video Codec
Format profile : [email protected]
Format settings, CABAC : Yes
Format settings, ReFrames : 4 frames
Codec ID : V_MPEG4/ISO/AVC
Duration : 1h 38mn
Bit rate : 3 200 Kbps
Width : 1 920 pixels
Height : 816 pixels
Display aspect ratio : 2.35:1
Frame rate mode : Constant
Frame rate : 23.976 fps
Color space : YUV
Chroma subsampling : 4:2:0
Bit depth : 8 bits
Scan type : Progressive
Bits/(Pixel*Frame) : 0.085
Stream size : 2.15 GiB (79%)
Writing library : x264 core 130 r2273 b3065e6
Encoding settings : cabac=1 // deblock=1:1:1 / analyse=0x1:0x111 / me=hex / subme=2 / psy=1 / psy_rd=0.40:0.00 // me_range=16 / chroma_me=1 / trellis=0 / 8x8dct=0 / cqm=0 / deadzone=21,11 / fast_pskip=1 / chroma_qp_offset=0 / threads=6 / lookahead_threads=2 / sliced_threads=0 / nr=0 / decimate=1 / interlaced=0 / bluray_compat=0 / constrained_intra=0 / bframes=5 / b_pyramid=2 / b_adapt=1 / b_bias=0 / direct=1 / weightb=1 / open_gop=0 / weightp=1 / keyint=240 / keyint_min=24 / scenecut=40 / intra_refresh=0 / rc_lookahead=10 / rc=2pass / mbtree=1 / bitrate=3200 / ratetol=1.0 / qcomp=0.60 / qpmin=0 / qpmax=69 / qpstep=4 / cplxblur=20.0 / qblur=0.5 / vbv_maxrate=20000 / vbv_bufsize=25000 / nal_hrd=none / ip_ratio=1.40 / aq=1:0.60
Language : English
Default : Yes
Forced : No
Color primaries : BT.709
Transfer characteristics : BT.709
Matrix coefficients : BT.709


Audio #1
ID : 2
Format : AC-3
Format/Info : Audio Coding 3
Mode extension : CM (complete main)
Format settings, Endianness : Big
Codec ID : A_AC3
Duration : 1h 38mn
Bit rate mode : Constant
Bit rate : 384 Kbps
Channel(s) : 6 channels
Channel positions : Front: L C R, Side: L R, LFE
Sampling rate : 48.0 KHz
Bit depth : 16 bits
Compression mode : Lossy
Stream size : 271 MiB (10%)
Title : Español Latino
Language : Latin
Default : Yes
Forced : No


Audio #2
ID : 3
Format : AC-3
Format/Info : Audio Coding 3
Mode extension : CM (complete main)
Format settings, Endianness : Big
Codec ID : A_AC3
Duration : 1h 38mn
Bit rate mode : Constant
Bit rate : 384 Kbps
Channel(s) : 6 channels
Channel positions : Front: L C R, Side: L R, LFE
Sampling rate : 48.0 KHz
Bit depth : 16 bits
Compression mode : Lossy
Stream size : 271 MiB (10%)
Title : Ingles
Language : English
Default : No
Forced : No


Text
ID : 4
Format : UTF-8
Codec ID : S_TEXT/UTF8
Codec ID/Info : UTF-8 Plain Text
Title : Español Latino
Language : Latin
Default : Yes
Forced : No


Menu
00:00:00.000 : en:Chapter 1
00:02:35.072 : en:Chapter 2
00:04:51.750 : en:Chapter 3
00:09:01.250 : en:Chapter 4
00:12:21.117 : en:Chapter 5
00:14:04.929 : en:Chapter 6
00:18:33.030 : en:Chapter 7
00:21:56.984 : en:Chapter 8
00:23:24.739 : en:Chapter 9
00:26:49.777 : en:Chapter 10
00:28:37.135 : en:Chapter 11
00:30:25.660 : en:Chapter 12
00:32:48.636 : en:Chapter 13
00:36:03.373 : en:Chapter 14
00:38:33.565 : en:Chapter 15
00:41:34.538 : en:Chapter 16
00:44:38.847 : en:Chapter 17
00:48:02.634 : en:Chapter 18
00:52:10.966 : en:Chapter 19
00:55:17.486 : en:Chapter 20
01:00:14.825 : en:Chapter 21
01:03:58.090 : en:Chapter 22
01:05:48.743 : en:Chapter 23
01:08:44.043 : en:Chapter 24
01:10:47.291 : en:Chapter 25
01:12:37.151 : en:Chapter 26
01:14:01.653 : en:Chapter 27
01:19:48.583 : en:Chapter 28
01:23:09.868 : en:Chapter 29
01:25:16.870 : en:Chapter 30
01:28:04.329 : en:Chapter 31
01:30:02.364 : en:Chapter 32

Sharing Widget


Download torrent
2.74 GiB (2937657108 Bytes)
seeders:3
leechers:2
The Croods (2013) 1080p Dual Audio Español Latino, Ingles



To share this torrent use the code below and insert it into comments, status messages, forum posts or your signature.

Torrent: The Croods (2013) 1080p Dual Audio Español Latino, Ingles

Trackers

tracker name
udp://tracker.coppersurfer.tk:6969/announce
udp://9.rarbg.me:2710/announce
udp://p4p.arenabg.ch:1337/announce
udp://tracker.leechers-paradise.org:6969/announce
udp://eddie4.nl:6969/announce
udp://thetracker.org:80/announce
udp://tracker.coppersurfer.tk:6969
udp://explodie.org:6969/announce
udp://tracker.aletorrenty.pl:2710/announce
udp://9.rarbg.to:2710/announce
udp://torrent.gresille.org:80/announce
udp://tracker.opentrackr.org:1337/announce
udp://tracker.piratepublic.com:1337/announce
udp://tracker.sktorrent.net:6969/announce
udp://zer0day.ch:1337/announce
??Torrent compatible trackers list

Locations

name
KickassTorrents
Torrent hash: 70DDD8809C0E4561927D6AD4BD0315099E7AA25F

All Comments

audio
0/10
video
0/10
please, leave only comments related to that torrent
Sign In

hdreyes
buenisima calidad!! como siempre!!
Gracias!!!
djjloco
muchas gracias mamo. espero que pronto teden una caravelita. muy buena 10A 10V
djjloco
memo ,,,,,,,
Edgardomx
muy buena la peli
nandocr01
Buena calidad de audio y video, la pelí es entretenida...gracias.
shahobaz
Thank you Uploader.
shahobaz
Thank you Uploader and Seeds.
jorgeelbacan05
No reproduce en TV LG presenta "Archivo invalido" sin embargo en el pc reproduce perfectamente.
heyf
Gracias !
Para poder verla en todos los pc, tv, dvd, debes convertir el archivo a uno "dvd", es decir, con carpetas AUDIO_TS y VIDEO_TS. (con archivos .ifo)
Report a bug Open chat