Taxi Driver (1976) 1080p Dual Audio Español Latino, Ingle

seeders: 1
leechers: 1
updated:
Added by Memo_2307 in TV
Torrent verified.

Taxi Driver (1976) 1080p Dual Audio Español Latino, Ingle (Size: 2.81 GiB (3012839329 Bytes))

Description

SIPNOSIS
Para sobrellevar el insomnio crónico que sufre desde su regreso de Vietnam, Travis Bickle (Robert De Niro) trabaja como taxista nocturno en Nueva York. Es un hombre poco sociable que apenas tiene contacto con los demás, se pasa los días en los cines para adultos y vive obesionado con Betsy (Cybill Shepherd), una atractiva rubia que trabaja como voluntaria en una campaña política. Tras estropear su incipiente relación con Betsy, Travis no puede menos que seguir observando cómo la violencia, la sordidez y la desolación se adueñan de la ciudad. Y un día decide pasar a la acción.


Format : Matroska
Format version : Version 4 / Version 2
File size : 2.81 GiB
Duration : 1h 53mn
Overall bit rate : 3 529 Kbps
Encoded date : UTC 2013-08-07 19:07:02
Writing application : mkvmerge v6.3.0 ('You can't stop me!') built on Jun 28 2013 20:09:41
Writing library : libebml v1.3.0 + libmatroska v1.4.0

Video
ID : 1
Format : AVC
Format/Info : Advanced Video Codec
Format profile : [email protected]
Format settings, CABAC : Yes
Format settings, ReFrames : 4 frames
Codec ID : V_MPEG4/ISO/AVC
Duration : 1h 53mn
Bit rate : 2 500 Kbps
Width : 1 920 pixels
Height : 1 036 pixels
Display aspect ratio : 1.85:1
Frame rate mode : Constant
Frame rate : 23.976 fps
Color space : YUV
Chroma subsampling : 4:2:0
Bit depth : 8 bits
Scan type : Progressive
Bits/(Pixel*Frame) : 0.052
Stream size : 1.94 GiB (69%)
Writing library : x264 core 120
Encoding settings : cabac=1 // deblock=1:0:0 / analyse=0x1:0x111 / me=hex / subme=2 / psy=1 / psy_rd=1.00:0.00 // me_range=16 / chroma_me=1 / trellis=0 / 8x8dct=0 / cqm=0 / deadzone=21,11 / fast_pskip=1 / chroma_qp_offset=0 / threads=6 / sliced_threads=0 / nr=0 / decimate=1 / interlaced=0 / bluray_compat=0 / constrained_intra=0 / bframes=3 / b_pyramid=2 / b_adapt=1 / b_bias=0 / direct=1 / weightb=1 / open_gop=0 / weightp=1 / keyint=240 / keyint_min=24 / scenecut=40 / intra_refresh=0 / rc_lookahead=10 / rc=2pass / mbtree=1 / bitrate=2500 / ratetol=1.0 / qcomp=0.60 / qpmin=3 / qpmax=69 / qpstep=4 / cplxblur=20.0 / qblur=0.5 / ip_ratio=1.40 / aq=1:1.00
Language : English
Default : Yes
Forced : No
Color primaries : BT.709
Transfer characteristics : BT.709
Matrix coefficients : BT.709

Audio #1
ID : 2
Format : AC-3
Format/Info : Audio Coding 3
Mode extension : CM (complete main)
Format settings, Endianness : Big
Codec ID : A_AC3
Duration : 1h 53mn
Bit rate mode : Constant
Bit rate : 640 Kbps
Channel(s) : 6 channels
Channel positions : Front: L C R, Side: L R, LFE
Sampling rate : 48.0 KHz
Bit depth : 16 bits
Compression mode : Lossy
Stream size : 521 MiB (18%)
Title : Español Latino
Language : Latin
Default : Yes
Forced : No

Audio #2
ID : 3
Format : AC-3
Format/Info : Audio Coding 3
Mode extension : CM (complete main)
Format settings, Endianness : Big
Codec ID : A_AC3
Duration : 1h 53mn
Bit rate mode : Constant
Bit rate : 384 Kbps
Channel(s) : 6 channels
Channel positions : Front: L C R, Side: L R, LFE
Sampling rate : 48.0 KHz
Bit depth : 16 bits
Compression mode : Lossy
Stream size : 313 MiB (11%)
Title : Ingles
Language : English
Default : No
Forced : No

Text
ID : 4
Format : VobSub
Muxing mode : zlib
Codec ID : S_VOBSUB
Codec ID/Info : The same subtitle format used on DVDs
Title : Español Latino
Language : Latin
Default : Yes
Forced : No

Menu
00:00:00.000 : en:Chapter 1
00:10:59.033 : en:Chapter 2
00:20:05.037 : en:Chapter 3
00:28:21.033 : en:Chapter 4
00:33:12.240 : en:Chapter 5
00:40:11.576 : en:Chapter 6
00:44:03.766 : en:Chapter 7
00:51:42.224 : en:Chapter 8
01:01:10.625 : en:Chapter 9
01:08:11.796 : en:Chapter 10
01:14:49.026 : en:Chapter 11
01:24:46.081 : en:Chapter 12
01:29:42.794 : en:Chapter 13
01:34:11.980 : en:Chapter 14
01:38:02.543 : en:Chapter 15
01:45:57.977 : en:Chapter 16

Sharing Widget


Download torrent
2.81 GiB (3012839329 Bytes)
seeders:1
leechers:1
Taxi Driver (1976) 1080p Dual Audio Español Latino, Ingle



To share this torrent use the code below and insert it into comments, status messages, forum posts or your signature.

Torrent: Taxi Driver (1976) 1080p Dual Audio Español Latino, Ingle

Trackers

tracker name
udp://tracker.coppersurfer.tk:6969/announce
udp://9.rarbg.me:2710/announce
udp://p4p.arenabg.ch:1337/announce
udp://tracker.leechers-paradise.org:6969/announce
udp://eddie4.nl:6969/announce
udp://thetracker.org:80/announce
udp://tracker.coppersurfer.tk:6969
udp://explodie.org:6969/announce
udp://tracker.aletorrenty.pl:2710/announce
udp://9.rarbg.to:2710/announce
udp://torrent.gresille.org:80/announce
udp://tracker.opentrackr.org:1337/announce
udp://tracker.piratepublic.com:1337/announce
udp://tracker.sktorrent.net:6969/announce
udp://zer0day.ch:1337/announce
??Torrent compatible trackers list

Locations

name
KickassTorrents
Torrent hash: C09B97E7F0B2C84B2F01B7707F7870F07C1F2757

All Comments

audio
0/10
video
0/10
please, leave only comments related to that torrent
Sign In

Report a bug Open chat