Forrest Gump (1994) 1080p Dual Audio Español Latino, Ingl

seeders: 8
leechers: 0
updated:
Added by Memo_2307 in TV
Torrent verified.

Forrest Gump (1994) 1080p Dual Audio Español Latino, Ingl (Size: 3.51 GiB (3768388302 Bytes))

Description

SIPNOSIS

Forrest Gump (Tom Hanks) es un chico que sufre un cierto retraso mental. A pesar de todo, gracias a su tenacidad y a su buen corazón será protagonista de acontecimientos cruciales de su país. Jenny, su gran amor desde la infancia, será la persona más importante de su vida.




DATOS TECNICOS

Format                                   : Matroska
Format version                           : Version 4 / Version 2
File size                                : 3.51 GiB
Duration                                 : 2h 22mn
Overall bit rate                         : 3 534 Kbps

Video
ID                                       : 1
Format                                   : AVC
Duration                                 : 2h 22mn
Bit rate                                 : 2 500 Kbps
Width                                    : 1 920 pixels
Height                                   : 816 pixels
Display aspect ratio                     : 2.35:1
Frame rate mode                          : Constant
Frame rate                               : 23.976 fps


Audio #1
ID                                       : 2
Format                                   : AC-3
Duration                                 : 2h 22mn
Bit rate mode                            : Constant
Bit rate                                 : 640 Kbps
Channel(s)                               : 2 channels
Channel positions                        : Front: L R
Sampling rate                            : 48.0 KHz
Bit depth                                : 16 bits
Compression mode                         : Lossy
Stream size                              : 651 MiB (18%)
Title                                    : Español Latino
Language                                 : Latin
Default                                  : Yes
Forced                                   : No

Audio #2
ID                                       : 3
Format                                   : AC-3
Format/Info                              : Audio Coding 3
Duration                                 : 2h 22mn
Bit rate mode                            : Constant
Bit rate                                 : 384 Kbps
Channel(s)                               : 2 channels
Channel positions                        : Front: L R
Sampling rate                            : 48.0 KHz
Bit depth                                : 16 bits
Compression mode                         : Lossy
Stream size                              : 390 MiB (11%)
Title                                    : Ingles
Language                                 : English
Default                                  : No
Forced                                   : No

Text
ID                                       : 4
Format                                   : PGS
        Title                         : Español Latino
Language                                 : Latin
Default                                  : Yes
Forced                                   : No

Sharing Widget


Download torrent
3.51 GiB (3768388302 Bytes)
seeders:8
leechers:0
Forrest Gump (1994) 1080p Dual Audio Español Latino, Ingl



To share this torrent use the code below and insert it into comments, status messages, forum posts or your signature.

Torrent: Forrest Gump (1994) 1080p Dual Audio Español Latino, Ingl

Trackers

tracker name
udp://tracker.coppersurfer.tk:6969/announce
udp://9.rarbg.me:2710/announce
udp://p4p.arenabg.ch:1337/announce
udp://tracker.leechers-paradise.org:6969/announce
udp://eddie4.nl:6969/announce
udp://thetracker.org:80/announce
udp://tracker.coppersurfer.tk:6969
udp://explodie.org:6969/announce
udp://tracker.aletorrenty.pl:2710/announce
udp://9.rarbg.to:2710/announce
udp://torrent.gresille.org:80/announce
udp://tracker.opentrackr.org:1337/announce
udp://tracker.piratepublic.com:1337/announce
udp://tracker.sktorrent.net:6969/announce
udp://zer0day.ch:1337/announce
??Torrent compatible trackers list

Locations

name
KickassTorrents
Torrent hash: EC4535DF512599A5E0C7E0595B1691074A1B8C25

All Comments

audio
0/10
video
0/10
please, leave only comments related to that torrent
Sign In

johns1t0
aportaso. gracias
angel_malo
Muchas gracias desde Chile.-
javiersource
Buenísimo gracias!
Report a bug Open chat