Battle for Sevastopol 2015 BRRip x264 AAC-SSN

seeders: 13
leechers: 0
updated:
Added by TvTeam in TV
Torrent verified.

Battle for Sevastopol 2015 BRRip x264 AAC-SSN (Size: 1.36 GiB )
Battle for Sevastopol 2015 BRRip x264 AAC-SSN.mkv1.36 GiB
Battle for Sevastopol 2015 BRRip x264 AAC-SSN.nfo3.47 KiB
Battle for Sevastopol 2015 BRRip x264 AAC-SSN.srt73.06 KiB
Torrent Downloaded From www.scenetime.com.txt84 B

Description

------------------------------------------------------------------------

  https://www.torrenting.com

Sign up is OPEN - for time being. Come and have fun.

------------------------------------------------------------------------General
Complete name                            : Battle for Sevastopol 2015 BRRip x264 AAC-SSNBattle for Sevastopol 2015 BRRip x264 AAC-SSN.mkv
Format                                   : Matroska
Format version                           : Version 4 / Version 2
File size                                : 1.36 GiB
Duration                                 : 2h 2mn
Overall bit rate                         : 1 586 Kbps
Encoded date                             : UTC 2015-12-19 10:48:39
Writing application                      : mkvmerge v8.2.0 ('World of Adventure') 64bit
Writing library                          : libebml v1.3.1 + libmatroska v1.4.2

Video
ID                                       : 1
Format                                   : AVC
Format/Info                              : Advanced Video Codec
Format profile                           : [email protected]
Format settings, CABAC                   : Yes
Format settings, ReFrames                : 5 frames
Codec ID                                 : V_MPEG4/ISO/AVC
Duration                                 : 2h 2mn
Bit rate                                 : 1 248 Kbps
Width                                    : 900 pixels
Height                                   : 376 pixels
Display aspect ratio                     : 2.40:1
Frame rate mode                          : Constant
Frame rate                               : 24.000 fps
Color space                              : YUV
Chroma subsampling                       : 4:2:0
Bit depth                                : 8 bits
Scan type                                : Progressive
Bits/(Pixel*Frame)                       : 0.184
Stream size                              : 1.07 GiB (79%)
Writing library                          : x264 core 148 r2638 7599210
Encoding settings                        : cabac=1 / ref=5 / deblock=1:0:0 / analyse=0x3:0x112 / me=dia / subme=1 / psy=0 / mixed_ref=1 / me_range=16 / chroma_me=1 / trellis=0 / 8x8dct=1 / cqm=0 / deadzone=22,11 / fast_pskip=1 / chroma_qp_offset=1 / threads=6 / lookahead_threads=2 / sliced_threads=0 / nr=0 / decimate=1 / interlaced=0 / bluray_compat=0 / constrained_intra=0 / bframes=10 / b_pyramid=2 / b_adapt=2 / b_bias=23 / direct=3 / weightb=1 / open_gop=1 / weightp=2 / keyint=250 / keyint_min=1 / scenecut=40 / intra_refresh=0 / rc_lookahead=100 / rc=2pass / mbtree=1 / bitrate=1248 / ratetol=3.0 / qcomp=0.80 / qpmin=10 / qpmax=40 / qpstep=3 / cplxblur=20.0 / qblur=0.5 / vbv_maxrate=50000 / vbv_bufsize=50000 / nal_hrd=none / filler=0 / ip_ratio=1.30 / aq=1:1.00
Language                                 : English
Default                                  : Yes
Forced                                   : No

Audio
ID                                       : 2
Format                                   : AAC
Format/Info                              : Advanced Audio Codec
Format profile                           : LC
Codec ID                                 : A_AAC
Duration                                 : 2h 2mn
Bit rate                                 : 336 Kbps
Channel(s)                               : 6 channels
Channel positions                        : Front: L C R, Side: L R, LFE
Sampling rate                            : 32.0 KHz
Frame rate                               : 31.250 fps (1024 spf)
Compression mode                         : Lossy
Stream size                              : 295 MiB (21%)
Default                                  : Yes
Forced                                   : No

Sharing Widget


Download torrent
1.36 GiB 
seeders:13
leechers:0
Battle for Sevastopol 2015 BRRip x264 AAC-SSN



To share this torrent use the code below and insert it into comments, status messages, forum posts or your signature.

Torrent: Battle for Sevastopol 2015 BRRip x264 AAC-SSN

Trackers

tracker name
udp://tracker.coppersurfer.tk:6969/announce
udp://9.rarbg.me:2710/announce
udp://p4p.arenabg.ch:1337/announce
udp://tracker.leechers-paradise.org:6969/announce
udp://eddie4.nl:6969/announce
udp://thetracker.org:80/announce
udp://tracker.coppersurfer.tk:6969
udp://explodie.org:6969/announce
udp://tracker.aletorrenty.pl:2710/announce
udp://9.rarbg.to:2710/announce
udp://torrent.gresille.org:80/announce
udp://tracker.opentrackr.org:1337/announce
udp://tracker.piratepublic.com:1337/announce
udp://tracker.sktorrent.net:6969/announce
udp://zer0day.ch:1337/announce
??Torrent compatible trackers list

Locations

name
KickassTorrents
Torrent hash: 5D9D609C7A132CA4B20AD14BEC14AA414968F4F7

All Comments

audio
0/10
video
0/10
please, leave only comments related to that torrent
Sign In

Report a bug Open chat