16.Extremes.(Dhuruvangal.Pathinaaru).2016.1080p.WEB-DL.x264.AC3.

seeders: 2
leechers: 1
updated:
Added by lletaif in TV
Torrent verified.

Description

Release: 16.Extremes.(Dhuruvangal.Pathinaaru).2016.1080p.WEB-DL.x264.AC3.HORiZON-ArtSubs

IMDB: http://www.imdb.com/title/tt6380520/ 

Subtitle: English 

Plot: Deepak is an retired police officer. He meets an young man who is interested in joining IPS. The young guy asks about the case of a mystry killer in which Deepak lost his leg and his career. Thus he explains about the unsolved mystry case. But in the end the case is solved by the young man, and Deepak meets his ultimate end. 

Complete name : 16.Extremes.(Dhuruvangal.Pathinaaru).2016.1080p.WEB-DL.x264.AC3.HORiZON-ArtSubs 
Format : Matroska 
Format version : Version 4 / Version 2 
File size : 2.20 GiB 
Duration : 1h 44mn 
Overall bit rate : 3 023 Kbps 
Encoded date : UTC 2017-05-08 01:01:39 
Writing application : mkvmerge v11.0.0 ('Alive') 64bit 
Writing library : libebml v1.3.4 + libmatroska v1.4.5 

Video 
ID : 2 
Format : AVC 
Format/Info : Advanced Video Codec 
Format profile : [email protected] 
Format settings, CABAC : Yes 
Format settings, ReFrames : 4 frames 
Codec ID : V_MPEG4/ISO/AVC 
Duration : 1h 44mn 
Bit rate : 2 515 Kbps 
Width : 1 920 pixels 
Height : 1 080 pixels 
Display aspect ratio : 16:9 
Frame rate mode : Constant 
Frame rate : 24.000 fps 
Color space : YUV 
Chroma subsampling : 4:2:0 
Bit depth : 8 bits 
Scan type : Progressive 
Bits/(Pixel*Frame) : 0.051 
Stream size : 1.83 GiB (83%) 
Writing library : x264 core 148 
Default : Yes 
Forced : No 

Audio 
ID : 1 
Format : AC-3 
Format/Info : Audio Coding 3 
Mode extension : CM (complete main) 
Format settings, Endianness : Big 
Codec ID : A_AC3 
Duration : 1h 44mn 
Bit rate mode : Constant 
Bit rate : 448 Kbps 
Channel count : 6 channels 
Channel positions : Front: L C R, Side: L R, LFE 
Sampling rate : 48.0 KHz 
Bit depth : 16 bits 
Compression mode : Lossy 
Delay relative to video : 78ms 
Stream size : 333 MiB (15%) 
Language : Tamil 
Default : Yes 
Forced : No 

Text 
ID : 3 
Format : UTF-8 
Codec ID : S_TEXT/UTF8 
Codec ID/Info : UTF-8 Plain Text 
Default : Yes 
Forced : No

Sharing Widget


Download torrent
2.2 GiB (2359507476 Bytes)
seeders:2
leechers:1
16.Extremes.(Dhuruvangal.Pathinaaru).2016.1080p.WEB-DL.x264.AC3.



To share this torrent use the code below and insert it into comments, status messages, forum posts or your signature.

Torrent: 16.Extremes.(Dhuruvangal.Pathinaaru).2016.1080p.WEB-DL.x264.AC3.

Trackers

tracker name
udp://tracker.coppersurfer.tk:6969/announce
udp://9.rarbg.me:2710/announce
udp://p4p.arenabg.ch:1337/announce
udp://tracker.leechers-paradise.org:6969/announce
udp://eddie4.nl:6969/announce
udp://thetracker.org:80/announce
udp://tracker.coppersurfer.tk:6969
udp://explodie.org:6969/announce
udp://tracker.aletorrenty.pl:2710/announce
udp://9.rarbg.to:2710/announce
udp://torrent.gresille.org:80/announce
udp://tracker.opentrackr.org:1337/announce
udp://tracker.piratepublic.com:1337/announce
udp://tracker.sktorrent.net:6969/announce
udp://zer0day.ch:1337/announce
??Torrent compatible trackers list

Locations

name
KickassTorrents
Torrent hash: CF5707859787BF713064BECCFD8E735D53FE11FF

All Comments

audio
0/10
video
0/10
please, leave only comments related to that torrent
Sign In

Report a bug Open chat